Aller au contenu


Photo

Vidéo MP4 parfaitement lisible avec VLC Mac et saccadée sur Quicktime


  • Veuillez vous connecter pour répondre
5 réponses à ce sujet

#1 Thiric

Thiric

    Nouveau

  • Membres
  • Pip
  • 4 messages
  • Gender:Male
  • Location:6270
  • Mac : Mac Pro
  • Version OS X : 10.9.3

Posté 19 juillet 2023 - 15:27

Bonjour

Je suis sur Mac OS 10.14.6

 

On m'a transmis une vidéo en MP4.

Il s'agit d'un petit film de 1930 sur pellicule qui a été numérisé.

 

Voici les infos affichées par le Mac :

- Type : Vidéo MPEG-4

- Dimensions : 768 × 576

- Codecs : QuickTime Text, AAC, 

   H.264

 

Lue avec QuickTime Player 7 et 10.5, les images sont saccadées.

Lue avec VLC Mac, les images sont fluides.

 

Peut-on me dire pourquoi la lecture avec QuickTime est défaillante ?

Comment rendre cette vidéo compatible avec QuickTime ?

 

Merci d'avance pour votre aide



#2 JLB21

JLB21

    Maître

  • Membres
  • PipPipPipPipPip
  • 1 866 messages
  • Gender:Male
  • Location:78
  • Mac : iMac i9 5K 3,6 GHz 40 Go CG 8 Go
  • Version OS X : 13.02

Posté 19 juillet 2023 - 19:09

Bonjour,

 

Jamais entendu parler d'un codec QuickTime Text !

 

Il faudrait que tu vérifies le codec véritable avec MediaInfo afin que l'on puisse te conseiller au mieux sur ce qu'il y a lieu de faire.

 

VLC comme d'autres players plus récents sont plus tolérants que QuickTime pour lire des vidéos encodées avec les pieds, ceci expliquant cela.

 

Ceci étant, un ré-encodage juste de la piste vidéo en H.264 avec des logiciels basés sur ffmpeg comme Shutter Encoder, Handbrake ou Avidemux devrait rendre ta vidéo parfaitement lisible dans QT.



#3 Thiric

Thiric

    Nouveau

  • Membres
  • Pip
  • 4 messages
  • Gender:Male
  • Location:6270
  • Mac : Mac Pro
  • Version OS X : 10.9.3

Posté 19 juillet 2023 - 20:34

Bonsoir,

Merci pour ton aide

J'ai téléchargé MediaInfo et voici le compte rendu VIEW Easy :

General
Complete name                            : /Users/jlpeniguet/Desktop/PI2010AUD-04578.mp4
Format                                   : MPEG-4
Format profile                           : Base Media
Codec ID                                 : isom (isom/iso2/avc1/mp41)
File size                                : 1.72 GiB
Duration                                 : 30 min 59 s
Overall bit rate                         : 7 932 kb/s
Frame rate                               : 25.000 FPS
Writing application                      : Lavf58.29.100
 
Video
ID                                       : 1
Format                                   : AVC
Format/Info                              : Advanced Video Codec
Format profile                           : Progressive High@L3.1
Format settings                          : CABAC / 4 Ref Frames
Format settings, CABAC                   : Yes
Format settings, Reference frames        : 4 frames
Codec ID                                 : avc1
Codec ID/Info                            : Advanced Video Coding
Duration                                 : 30 min 59 s
Bit rate                                 : 8 000 kb/s
Width                                    : 720 pixels
Height                                   : 576 pixels
Display aspect ratio                     : 4:3
Frame rate mode                          : Constant
Frame rate                               : 25.000 FPS
Standard                                 : PAL
Color space                              : YUV
Chroma subsampling                       : 4:2:0
Bit depth                                : 8 bits
Scan type                                : Progressive
Bits/(Pixel*Frame)                       : 0.772
Stream size                              : 1.70 GiB (99%)
Writing library                          : x264 core 157 r2969 d4099dd
Encoding settings                        : cabac=1 / ref=3 / deblock=1:0:0 / analyse=0x3:0x113 / me=hex / subme=7 / psy=1 / psy_rd=1.00:0.00 / mixed_ref=1 / me_range=16 / chroma_me=1 / trellis=1 / 8x8dct=1 / cqm=0 / deadzone=21,11 / fast_pskip=1 / chroma_qp_offset=-2 / threads=12 / lookahead_threads=2 / sliced_threads=0 / nr=0 / decimate=1 / interlaced=0 / bluray_compat=0 / constrained_intra=0 / bframes=3 / b_pyramid=2 / b_adapt=1 / b_bias=0 / direct=1 / weightb=1 / open_gop=0 / weightp=2 / keyint=250 / keyint_min=25 / scenecut=40 / intra_refresh=0 / rc_lookahead=40 / rc=abr / mbtree=1 / bitrate=8000 / ratetol=1.0 / qcomp=0.60 / qpmin=0 / qpmax=69 / qpstep=4 / ip_ratio=1.40 / aq=1:1.00
Menus                                    : 3
Codec configuration box                  : avcC
 
Audio
ID                                       : 2
Format                                   : AAC LC
Format/Info                              : Advanced Audio Codec Low Complexity
Codec ID                                 : mp4a-40-2
Duration                                 : 30 min 59 s
Bit rate mode                            : Constant
Bit rate                                 : 61.1 kb/s
Channel(s)                               : 2 channels
Channel layout                           : L R
Sampling rate                            : 48.0 kHz
Frame rate                               : 46.875 FPS (1024 SPF)
Compression mode                         : Lossy
Stream size                              : 13.5 MiB (1%)
Default                                  : Yes
Alternate group                          : 1
Menus                                    : 3
 
Menu #1
ID                                       : 3
Format                                   : Timed Text
Codec ID                                 : text
Duration                                 : 30 min 59 s
Language                                 : English
Menu For                                 : 1,2
 
Menu #2


#4 JLB21

JLB21

    Maître

  • Membres
  • PipPipPipPipPip
  • 1 866 messages
  • Gender:Male
  • Location:78
  • Mac : iMac i9 5K 3,6 GHz 40 Go CG 8 Go
  • Version OS X : 13.02

Posté 20 juillet 2023 - 10:21

A part le fait que l'analyse est en anglais (chez moi, MediaInfo est en français et envoie son analyse en français), tout semble normal.

Et il n'est pas normal que QT ne lise pas de façon fluide cette vidéo, sauf encodage initial, comme je te l'ai dit, de mauvaise qualité.

 

Je te suggère quand même de tenter un ré-encodage de la piste vidéo dans Handbrake avec les réglages suivants :

 

Préréglage : Apple 720p30, 

 

Onglet Vidéo :

 

 CleanShot 2023-07-20 at 11.13.08@2x.jpg

 

Cest réglages correspondant exactement à la piste vidéo originale, à savoir fréquence d'image et débit constant identiques.

 

Onglet audio :  Codec 'AAC Passthru' ce qui signifie copie des pistes originales sans ré-encodage.

 

CleanShot 2023-07-20 at 11.14.43@2x.jpg

 

 

 

 

 

 



#5 Thiric

Thiric

    Nouveau

  • Membres
  • Pip
  • 4 messages
  • Gender:Male
  • Location:6270
  • Mac : Mac Pro
  • Version OS X : 10.9.3

Posté 21 juillet 2023 - 14:02

Ré-encodé avec Handbrake et les réglages préconisés par toi, la lecture de cette vidéo .MP4 est maintenant parfaitement fluide avec QuickTime.

Un  grand merci JLB21 ! 



#6 JLB21

JLB21

    Maître

  • Membres
  • PipPipPipPipPip
  • 1 866 messages
  • Gender:Male
  • Location:78
  • Mac : iMac i9 5K 3,6 GHz 40 Go CG 8 Go
  • Version OS X : 13.02

Posté 21 juillet 2023 - 16:33

Merci pour le retour… ;)

 

C'était donc bien l'encodage initial qui était de mauvaise qualité, malgré le même encodeur x.264 que celui utilisé par Handbrake…

 

Ce sont des choses qui arrivent, sachant que QT ne supporte pas le moindre défaut aussi minime soit-il quand les lecteurs de type VLC les avalent sans broncher.




0 utilisateur(s) li(sen)t ce sujet

0 membre(s), 0 invité(s), 0 utilisateur(s) anonyme(s)